<?xml version="1.0" standalone="no"?> <!DOCTYPE svg PUBLIC "-//W3C//DTD SVG 1.0//EN" "http://www.w3.org/TR/2001/REC-SVG-20010904/DTD/svg10.dtd" > <svg xmlns="http://www.w3.org/2000/svg" width="100%" height="100%">
<defs >
<font id="mfdev010" horiz-adv-x="396" ><font-face
    font-family="DevLys 010"
    units-per-em="1000"
    panose-1="0 0 0 0 0 0 0 0 0 0"
    ascent="801"
    descent="-248"
    alphabetic="0" />
<missing-glyph horiz-adv-x="800" d="M50 0V800H750V0H50ZM700 50V750H100V50H700Z" />
<glyph unicode=" " glyph-name="space" horiz-adv-x="379" />
<glyph unicode="!" glyph-name="exclam" horiz-adv-x="300" d="M215 176H170L162 670H223L215 176ZM164 0V61H227V0H164Z" />
<glyph unicode="&quot;" glyph-name="quotedbl" horiz-adv-x="229" d="M282 155Q259 146 230 146Q198 146 175 154T128 180T92 224T80 276V475H0V516H234V475H141L324 285V184Q308 166 282 155ZM133 434V275Q133 253 139 238T159 213T189 195Q206 190 224 190L251
193L278 202L301 217L318 237L133 434Z" />
<glyph unicode="#" glyph-name="numbersign" horiz-adv-x="541" d="M289 475V350L304 358L317 365L351 377Q363 380 383 382Q405 382 427 373T465 347Q479 331 491 308Q500 288 500 265Q500 236 489 208Q480 181 458 150L440 127L416 101L379 135L399 154L414
171Q420 179 427 193T440 219Q449 243 449 269Q449 289 445 300T429 323Q419 331 406 335T377 340Q361 340 350 339T328 331Q315 328 306 320L287 304Q286 299 285 298L284 293L282 288L280 285Q274 275 261 267L234 255L221 252L206 251Q197 251 192 249H182L188
237L207 209L231 173L254 143L281 109L318 67L342 40L357 24L314 -4L288 23L253 65L207 122L164 183L115 255L80 314L70 333L61 353L104 375L141 311L149 302L163 294L179 288L195 286Q208 287 216 292T232 308L235 323L236 349V475H0V516H549V475H289Z" />
<glyph unicode="$" glyph-name="dollar" horiz-adv-x="553" d="M293 234V0H250V234H14V277H250V516H293V277H531V234H293Z" />
<glyph unicode="%" glyph-name="percent" horiz-adv-x="168" d="M51 367V434H121V367H51ZM51 80V148H121V80H51Z" />
<glyph unicode="&amp;" glyph-name="ampersand" horiz-adv-x="553" d="M14 234V277H527V234H14Z" />
<glyph unicode="&apos;" glyph-name="quotesingle" horiz-adv-x="371" d="M297 475Q309 463 318 448L334 419L343 388L347 356Q347 319 333 288Q321 257 295 228T235 185T164 171L330 33L295 -2L55 201L90 236L123 209L129 207H135L161 208Q176 210 189 214T217
226L248 247L272 272L288 299L293 320L295 349L280 336L268 327Q251 315 234 309Q224 306 203 304Q177 304 158 311T123 334T95 370Q87 389 87 410Q87 428 93 442T115 474L0 475V516H371V475H297ZM280 422Q277 432 272 438Q261 455 243 465T205 476Q188 476 178
471Q167 468 158 459T145 438L141 415Q141 401 145 389T159 367T180 353T209 347Q226 347 241 353T270 374L278 385L289 401L280 422Z" />
<glyph unicode="(" glyph-name="parenleft" horiz-adv-x="180" d="M82 264V322H146V264H82ZM78 -94H33L78 57H145L78 -94Z" />
<glyph unicode=")" glyph-name="parenright" horiz-adv-x="625" d="M523 475V338H328Q314 338 299 332Q287 329 278 320Q270 314 264 298L260 267Q260 239 270 218T303 179Q322 164 349 153Q376 145 404 145L415 146L430 148L442 150L447 151L446 160Q446 168
451 178Q458 204 472 218T506 233Q517 233 525 229Q533 227 539 220L547 204Q550 196 550 185Q550 172 547 161T536 139T517 121Q511 118 496 116L500 98L503 86L510 57L518 32L561 -82H506L479 4Q476 -5 459 -15L416 -36L374 -48Q351 -53 332 -53Q298 -53 273
-41T230 -1L220 19L211 50L160 54L125 61Q83 73 60 99Q39 125 39 163Q39 185 44 199T60 228Q70 240 85 248Q103 255 119 255Q136 255 147 250Q160 247 173 237L187 221L193 216L166 191L158 197L153 202L137 211L121 214L104 211L93 203L86 189L82 173Q82 149 97
131T145 101L195 87Q200 86 203 86T208 86Q216 86 219 89L222 95L225 100L232 111Q235 117 240 121L248 128L259 136L269 142L277 145L256 162L243 178Q228 197 217 221Q213 232 211 242T209 267Q209 294 216 314Q222 336 236 348Q250 362 268 369Q277 372 287
374T309 376L471 377V475H0V516H629V475H523ZM455 111L448 109L432 108Q421 108 415 106H404L383 107L358 112L347 114L332 118L310 111L295 105Q278 96 268 82T258 50Q258 35 263 25T280 4L305 -7Q315 -10 336 -12Q352 -12 373 -6Q380 -4 394 1T418 11L455 32L471
46L455 111Z" />
<glyph unicode="*" glyph-name="asterisk" horiz-adv-x="203" d="M94 449H51L94 592H152L94 449Z" />
<glyph unicode="+" glyph-name="plus" horiz-adv-x="2" d="M-258 -113V-57H-199V-113H-258Z" />
<glyph unicode="," glyph-name="comma" horiz-adv-x="445" d="M379 475V287Q379 271 374 259T358 236Q349 225 335 217L309 206L271 236Q282 236 291 240T309 255L321 276Q324 283 326 298V475H137V229L365 16L372 7L377 0Q383 -8 386 -18L389 -39Q389 -59 380
-71T351 -95L335 -99L313 -105L268 -61L275 -63L291 -64L297 -63H303L308 -61L314 -60Q321 -58 323 -56L332 -49L333 -46L335 -43L336 -39L337 -35Q337 -29 334 -22T322 -8L319 -5L314 -2L82 217V475H0V516H447V475H379Z" />
<glyph unicode="-" glyph-name="hyphen" horiz-adv-x="168" d="M51 0V66H121V0H51Z" />
<glyph unicode="." glyph-name="period" horiz-adv-x="361" d="M330 475V301Q330 291 330 280T322 249T299 211T261 183T211 175Q193 175 185 176T162 183Q142 192 123 209T95 248T86 296V475H0V516H369V475H330ZM277 475H139V297Q139 280 143 265T156 238T177
219T207 212Q225 212 238 218T262 240Q268 249 273 266L277 300V475Z" />
<glyph unicode="/" glyph-name="slash" horiz-adv-x="273" d="M248 475V516H278V475H248ZM341 158L305 133Q275 113 241 103Q227 99 209 96T174 93Q149 93 128 100T86 123T55 159T45 200Q45 216 51 232T70 265L80 275L96 288Q84 294 64 309Q51 320 35 340L15 376Q8
397 8 413Q8 434 15 452T35 485T67 506T109 514Q126 514 142 509T173 492T194 466T201 436V406H156V437Q156 455 145 466T111 477Q98 477 90 472T74 458L64 438L61 415Q61 394 67 378T82 350T95 334T110 320T135 310L169 320L208 324L226 323L246 321L268 283L201
280Q177 280 162 275Q132 268 116 250T100 202Q100 187 106 175T124 154T153 138L184 134Q216 134 244 145T307 181L329 201L355 229V176Q355 169 341 158Z" />
<glyph unicode="0" glyph-name="zero" horiz-adv-x="389" d="M33 325Q38 364 47 389L57 414L70 436L84 456L101 473Q120 487 143 494T192 502Q216 502 231 497Q248 494 263 485Q278 479 291 466L314 439L331 402L345 362L353 312L356 246V235Q356 216 355 199T351
162T346 132T338 106T327 78T314 55Q303 38 285 22T244 -1Q233 -4 220 -6T192 -8Q156 -8 126 4Q98 17 78 42Q55 71 42 123T29 246Q29 266 29 281T33 325ZM99 144Q105 105 119 84T153 51Q173 41 192 41Q213 41 230 51Q249 60 263 82Q278 102 285 144T293 246Q293
312 285 348Q279 388 264 409T231 440T192 451Q172 451 155 442T124 415Q109 392 100 350Q96 328 94 305T92 246Q92 183 99 144Z" />
<glyph unicode="1" glyph-name="one" horiz-adv-x="389" d="M199 0V392Q190 382 174 370L141 349L124 338L108 330L92 323L76 317V377Q98 385 123 401L164 434Q183 450 198 468L221 502L261 503V0H199Z" />
<glyph unicode="2" glyph-name="two" horiz-adv-x="389" d="M352 0H21Q21 14 23 21L29 42Q33 56 44 73Q52 88 69 108L84 126L101 143L122 161L149 184Q191 218 215 242L258 288Q272 306 280 327Q284 336 286 344T288 364Q288 383 282 397T263 424T232 444T194
451Q172 451 155 445T125 426T103 392Q96 371 96 350L33 358Q36 390 48 417T81 465Q102 483 132 492T195 502Q232 502 259 493T308 464T340 419T351 363L350 346L349 333Q349 327 345 320L340 306L332 290L322 274L310 257L298 243L258 202L204 154L158 116L132
91L106 59H352V0Z" />
<glyph unicode="3" glyph-name="three" horiz-adv-x="389" d="M91 141Q94 124 96 115T106 90T125 64T155 46Q166 43 171 42T189 41Q211 41 229 48T261 70T284 104T292 145Q292 167 285 184Q279 203 265 215L249 227L233 236L215 241L194 243Q181 243 173 241L150
236L157 291L167 290Q176 290 186 290Q198 293 204 294Q222 301 237 311T261 336T269 373Q269 389 263 404Q259 418 248 428T222 445T188 451Q171 451 155 446T127 429Q116 420 107 401Q102 388 97 362L36 373Q41 403 53 426T85 466T130 493T186 502Q209 502 225
497Q243 494 260 485T290 465T314 436Q317 431 320 426T327 407T332 389T333 372Q333 355 328 341Q325 327 315 314T293 289Q279 279 264 271Q288 264 303 254Q320 245 332 229T351 190Q354 180 356 170T358 147Q358 115 346 87T310 35Q286 14 255 3T189 -9Q157
-9 129 0T79 29Q69 38 61 49T44 74Q32 100 29 131L91 141Z" />
<glyph unicode="4" glyph-name="four" horiz-adv-x="389" d="M226 120H9V176L237 501H288V176H356V120H288V0H226V120ZM226 402L69 176H226V402Z" />
<glyph unicode="5" glyph-name="five" horiz-adv-x="389" d="M94 136Q97 113 105 96T126 65T155 47T190 41Q213 41 230 49T265 74Q278 89 287 112T296 163Q296 190 288 209Q282 230 267 245T232 268T189 277Q181 277 177 277T159 274T135 263L124 255L114 248L105
239L98 229L40 237L88 494H337V435H138L111 301L133 313L156 323L179 329L205 331Q224 331 237 329T271 319T315 288T349 235T361 169Q361 135 352 105T321 51Q297 21 264 7T190 -8Q157 -8 129 1T79 29T44 74Q32 100 29 131L94 136Z" />
<glyph unicode="6" glyph-name="six" horiz-adv-x="389" d="M287 374L283 387L280 397L273 412L264 425Q253 436 237 444Q219 451 202 451Q186 451 174 448T150 435T124 409Q119 401 117 397Q111 386 105 373L97 350L92 323L88 291L87 257Q96 271 110 285T140
307L174 319Q186 322 191 323T209 324Q239 324 265 313T313 279T346 225Q351 212 354 196T357 161Q357 153 357 143T352 115T338 76T312 38Q300 25 281 12Q262 2 244 -2T216 -7T200 -8Q161 -8 131 5T75 46T38 121Q33 142 30 171T27 233Q27 308 39 359T80 445Q102
473 134 487T206 502Q225 502 234 501T263 493T301 471T333 430Q344 409 349 378L287 374ZM98 144L100 130L104 115L111 100L126 76L147 57L172 45L199 41Q219 41 236 48T266 71T287 108Q290 119 292 130T294 158Q294 183 287 203Q281 225 267 239T235 262T197
270Q174 270 158 262Q142 256 127 241T104 204Q101 194 99 184T97 161L98 144Z" />
<glyph unicode="7" glyph-name="seven" horiz-adv-x="389" d="M33 495H358V447L334 419L311 388L287 352L263 310L239 266L220 224L212 203L204 183L197 162L191 141L180 102L173 67L168 33L167 0H103Q103 13 104 29T108 61T115 99T125 141Q136 182 152 222Q162
248 169 264T190 303L211 340L232 374L254 406L279 434L33 435V495Z" />
<glyph unicode="8" glyph-name="eight" horiz-adv-x="389" d="M91 287Q76 297 67 310T52 340L48 373Q48 390 50 399L57 422L69 444L87 465Q107 483 134 492T192 502Q226 502 253 493T299 464Q317 448 327 423T338 371Q338 353 333 339Q330 324 320 310Q316 305
311 300T294 286T264 271Q288 265 304 251Q323 239 335 222Q344 208 351 187T358 142Q358 123 356 110T347 81Q336 53 313 33Q293 13 261 3T193 -8Q156 -8 127 1T76 33T40 83Q29 111 29 144L30 168Q30 180 34 189L37 198L42 208L47 217L53 226Q64 240 81 251T124
271Q117 273 111 276T91 287ZM116 342Q122 329 133 317T158 300T176 295T194 294Q213 294 226 299T252 317Q260 325 269 341Q275 355 275 371Q275 387 270 400T251 428Q245 433 240 436T223 445T193 451Q175 451 160 445T134 428T118 406T111 375Q111 356 116 342ZM95
118L104 93L119 70L140 54L165 44L194 41Q217 41 234 47T266 69T288 103T295 142Q295 165 287 182Q281 201 266 215T231 236T192 244Q169 244 152 236Q136 231 121 216T99 182T92 144L95 118Z" />
<glyph unicode="9" glyph-name="nine" horiz-adv-x="389" d="M97 121Q100 99 108 83Q114 67 123 60T149 45L181 41L208 44Q221 47 231 55L250 70Q259 78 265 88L271 99L277 113L282 128L288 147L295 184L297 222V236Q288 221 276 209T247 188T213 173L177 169Q145
169 120 180T72 213Q50 236 39 266Q29 299 29 333Q29 354 31 368T40 401Q52 432 73 454T123 489T187 502Q203 502 211 500Q224 500 233 496Q247 492 254 488L276 476Q295 464 311 444Q324 428 337 401Q347 378 352 341T358 260V248Q358 229 357 210T354 174T347
140T337 107Q328 79 311 57Q296 35 276 20T231 -1Q218 -4 206 -6T179 -8Q159 -8 150 -7T125 0Q100 6 83 23Q66 37 55 59T38 115L97 121ZM283 383Q277 403 264 418T232 442T194 451Q180 451 175 450T154 443T124 419T99 378Q96 368 94 356T92 331Q92 307 98 288T119
254T153 230Q174 223 192 223Q214 223 231 229T262 251T283 290T290 336Q290 362 283 383Z" />
<glyph unicode=":" glyph-name="colon" horiz-adv-x="637" d="M299 475V350H420L448 361L476 365Q501 365 524 353T565 318T593 265T604 208Q604 164 595 127T566 53L558 39L547 24L504 51L521 75L533 96Q548 124 555 152Q559 166 561 178T563 206Q563 231 557
248T538 282T510 305T475 313Q458 313 448 308Q437 305 429 297T416 277L412 253Q412 235 417 222T434 197L443 189L457 181L430 141Q416 147 406 157T386 184T373 217L369 252L372 280L381 306L289 307L287 299L285 294Q279 279 267 270T232 253L221 251L206 250H198H191L186
249H182L188 237L207 209L231 173L254 143L281 109L318 67L342 40L357 24L314 -4L288 23L253 65L207 122L164 183L115 255L80 314L70 333L61 353L104 375L141 311Q152 298 162 294T191 288Q204 288 213 291T230 303T242 322L246 349V475H0V516H635V475H299Z" />
<glyph unicode=";" glyph-name="semicolon" horiz-adv-x="504" d="M434 475V0H381V154Q355 132 324 121T259 109Q220 109 187 121T127 158Q97 184 83 218T68 294L76 291L85 288Q92 287 94 286H104Q124 286 138 290T165 306T184 334T191 372Q191 388 185 405T166
442L155 456L141 474L0 475V516H506V475H434ZM381 475H205L217 455L225 440L241 401L246 370Q246 336 232 311T188 268L163 258L129 249L132 239L136 231L139 223L142 217Q162 180 189 163T252 145Q272 145 291 151T326 167T346 182T359 195L381 226V475Z" />
<glyph unicode="&lt;" glyph-name="less" horiz-adv-x="492" d="M385 475V324H205Q192 324 186 323T168 316T143 298T124 270T117 233Q117 186 138 147Q159 111 201 87L236 71L285 58L278 65L273 71Q266 80 264 85T253 107Q246 130 246 149Q246 172 252 188T273
217T305 236T343 242Q365 242 382 236T415 217T439 185Q443 177 445 168T447 145Q447 115 435 92T401 53T351 27Q337 24 324 22T295 20Q251 20 213 34T140 78T82 148Q64 186 64 231Q64 259 73 282T101 323T143 351T195 360L332 361V475H0V516H512V475H385ZM324
199Q315 196 306 187L295 168L291 145Q291 122 296 107T313 79L322 71L336 63Q349 63 359 69T378 88T390 112T396 145L393 168L384 187Q378 195 369 199T349 204Q334 204 324 199Z" />
<glyph unicode="=" glyph-name="equal" horiz-adv-x="524" d="M463 475V0L411 1V187L172 45L141 90L389 219L356 251L332 274Q303 302 281 316T249 331Q241 331 232 330T206 324T153 300L124 285L86 265L55 305Q60 307 63 309Q82 320 86 322L173 358L223 376Q244
382 254 382Q268 382 289 368T340 325L368 296L411 250V475H-2V516H535V475H463Z" />
<glyph unicode="&gt;" glyph-name="greater" horiz-adv-x="588" d="M518 475V0H465V207H358L357 178Q357 152 348 131T318 93Q294 72 271 61T227 50L273 21L326 -2L295 -41L232 -2L217 7L199 20L183 33L174 42L150 43H116Q104 44 91 49T70 66Q65 75 63 93L66 108L75
123L88 132L104 136Q114 136 119 134Q126 134 134 129L148 121L163 110L173 99L186 83L220 90Q237 93 245 98Q276 112 290 133T305 185Q305 196 303 200L297 210L288 216L276 218L259 216L236 210L213 204L199 202L177 205Q166 208 155 214T132 231L110 254Q89
280 77 302Q66 326 66 343Q66 357 71 366T87 381L101 386L119 388L268 389V475H0V516H600V475H518ZM465 475H320V348H129L122 343L120 338L121 328L126 317L136 300L154 278L166 265L179 257L192 253L209 252L225 253Q237 253 252 257L278 261L295 263Q307 263
317 258Q328 255 342 246L346 242L353 237L465 238V475Z" />
<glyph unicode="?" glyph-name="question" horiz-adv-x="324" d="M384 144L359 131Q326 116 296 108T242 99Q232 99 221 99T191 107Q168 114 146 130T112 167Q102 189 102 212Q102 230 108 247T130 281L141 292L158 306L134 316L118 326Q98 340 88 359T78 399L80
419L87 442L97 462L107 474L0 475V516H326V475H170L158 464L150 456L134 430Q131 422 129 403Q129 388 135 376T155 353Q162 347 166 345T177 339L201 335L287 336L305 299H250Q235 299 218 292Q202 287 187 276T163 248T154 212Q154 195 160 183T181 160T213 144L250
140Q274 140 301 149Q316 154 328 159T360 176L400 201Q413 211 416 218V164L384 144Z" />
<glyph unicode="@" glyph-name="at" horiz-adv-x="781" d="M153 -145L126 -111L626 609L661 584L153 -145Z" />
<glyph unicode="A" glyph-name="A" d="M291 -53V531H344V-53H291Z" />
<glyph unicode="B" glyph-name="B" horiz-adv-x="492" d="M387 475V326H199Q179 326 166 318Q153 312 143 300T124 267Q119 250 119 231Q119 199 131 171T169 118Q190 98 217 84Q244 73 271 73Q298 73 319 80T359 103T386 138T396 181Q396 199 391 213T375 244L366
254L354 267L389 301Q396 301 407 289L429 257Q437 242 441 225T446 202T447 181Q447 147 435 122T398 76T341 45T271 34Q230 34 194 48T129 91T81 156Q66 191 66 233Q66 265 75 289T106 331T151 359T207 368L336 369V475H0V516H494V475H387Z" />
<glyph unicode="C" glyph-name="C" horiz-adv-x="230" d="M0 475V516H250V475H0ZM297 130L271 117Q259 111 243 108L214 106Q185 106 159 115T111 144Q87 164 75 190Q64 218 64 249Q64 278 74 302T106 348T152 379T205 390L228 388Q241 388 253 384L258 382L266
380L273 336Q268 342 254 346L228 350Q213 350 205 348L183 342Q173 339 163 332Q153 327 148 321L314 207L320 221V152Q311 140 297 130ZM127 297L123 287L121 280L116 262L115 249Q115 227 121 209T144 176Q158 160 176 152Q197 145 215 145Q223 145 231 145Q239
148 242 149Q254 153 257 154T269 163L279 170L291 181L127 297Z" />
<glyph unicode="D" glyph-name="D" horiz-adv-x="420" d="M489 335L480 336L463 334L437 328Q422 325 408 314T382 285T363 249T357 214V0H305V148Q288 131 264 121T212 111Q186 111 161 120T114 148T79 193Q68 218 68 249Q68 277 78 300T110 344T156 375Q167
379 180 382T208 385L235 382L260 374V332L237 340L215 343Q196 343 181 337T154 318T132 287Q126 272 123 251Q123 233 129 214T147 180T176 156Q194 149 211 149Q229 149 242 154T270 172Q276 178 283 185T296 200Q305 214 305 226V475H0V516H422V475H357V324L381
344L403 360L417 367L431 373L444 376L458 377Q468 377 476 375T490 370L495 334L489 335Z" />
<glyph unicode="E" glyph-name="E" horiz-adv-x="275" d="M178 254V182V178L177 171V167Q174 162 172 160L156 158Q146 158 132 169L98 205L69 244Q61 259 59 271L62 282Q66 287 73 291L78 293L88 296L127 297V475H0V516H283V475H178V297H354V254H178Z" />
<glyph unicode="F" glyph-name="F" horiz-adv-x="336" d="M394 163L371 146L338 127L306 114L273 105L240 103Q190 103 147 124T68 189Q55 204 44 224L18 276Q33 269 56 262L100 258Q129 258 152 264T196 285T228 323T240 374Q240 394 234 411T213 443Q202 457
184 465T146 473Q130 473 120 470T101 459T86 439L82 417Q82 401 89 391T114 373L127 369L146 366V324H133Q126 324 113 325T89 332Q62 342 45 365Q31 387 31 419Q31 438 40 455T66 486T105 507Q116 510 125 512T146 514Q177 514 202 503Q226 495 248 474T280 428T291
374Q291 337 279 311T242 263Q220 246 183 234Q146 224 105 224L94 225Q100 210 115 195L150 169Q169 158 191 151T236 144Q273 144 308 159T374 205L397 230L422 267V189L394 163Z" />
<glyph unicode="G" glyph-name="G" horiz-adv-x="588" d="M457 475V371L473 362L486 355Q518 334 534 298Q551 264 551 218Q551 196 550 187T542 154T519 110T478 72Q454 60 422 60Q398 60 382 65T350 82T320 110Q311 123 303 145Q300 135 296 126T286 108Q277
93 261 80T226 61T186 54Q156 54 132 66T92 100T66 150Q58 179 58 209Q58 231 59 240T66 268Q76 297 92 321T133 356T189 368Q211 368 228 363T259 347Q275 338 286 323T305 288L324 318Q333 331 335 334Q341 340 344 342Q356 354 372 360T404 370V475H0V516H586V475H457ZM490
259Q487 280 479 293Q470 311 455 320T418 329Q397 329 380 315Q364 304 349 276Q343 265 340 259T332 239L330 216V202L336 178Q347 139 369 118Q391 99 424 99Q443 99 457 108T481 137Q487 151 490 171L494 216Q494 230 494 244Q491 255 490 259ZM274 248Q271
260 265 271Q251 299 232 313T188 327Q169 327 156 319T134 296T116 258Q112 240 112 230T111 214Q111 198 111 183Q114 170 115 165Q120 143 129 128T153 104T188 95Q211 95 230 109T265 155L274 180L283 216L274 248Z" />
<glyph unicode="H" glyph-name="H" horiz-adv-x="275" d="M246 475V516H285V475H246ZM201 250V170V159L200 153L192 146L182 144Q172 144 156 156T112 197L74 242Q63 259 61 269L64 277L72 285L81 290L88 292L148 293V433Q148 443 145 450T135 464T121 474T103
477Q94 477 83 473L66 464L55 448L51 427L52 413L57 398L59 391L64 382L14 383L10 390L9 396L5 410L4 423Q4 446 10 462T32 491T66 510T105 516Q124 516 142 510T173 493T194 465T201 428V293H365V250H201Z" />
<glyph unicode="I" glyph-name="I" horiz-adv-x="215" d="M292 205L267 191L253 186L241 183L227 180H214Q187 180 163 189T119 218Q98 236 88 262T78 317V475H0V516H221V475H129V309Q129 287 136 270T157 240T186 221Q196 218 215 216Q232 216 249 223T282 247Q290
255 296 262T307 279T314 302V225L292 205Z" />
<glyph unicode="J" glyph-name="J" horiz-adv-x="576" d="M506 475V0H451V248L195 51L164 94L350 227L279 264L258 272L235 284L225 289L211 298L139 248L59 195L25 234L104 281Q114 284 123 292L145 306L155 313L168 323L147 335L134 346Q119 360 108 380Q100
399 100 421Q100 443 107 459T129 488T164 507T203 514Q225 514 242 508T274 490T298 460T307 421Q307 408 306 402T299 384T277 354L264 343L247 329L288 305L319 288L356 268L388 255L451 301V475H344V516H578V475H506ZM249 440Q246 450 237 459L218 471L197
475Q187 475 179 472T161 461L150 444L146 421Q146 406 152 394T174 369L192 357L205 353L219 360Q225 363 229 368Q242 379 247 390T254 417Q254 431 249 440Z" />
<glyph unicode="K" glyph-name="K" horiz-adv-x="588" d="M518 475V0H465V350H146Q140 350 136 347T132 337L134 324L141 310L151 293L158 284L173 266L186 254L203 244L223 241L243 243L270 252L296 260L318 263Q332 263 343 258T364 239Q372 226 375 215T381
183Q381 155 370 134Q361 113 339 94Q324 82 315 76T288 59Q263 48 242 48L342 -27L301 -59L199 39H166H154Q148 39 135 41T108 51T85 70Q80 80 78 95L81 109L90 122L103 131L119 134Q128 134 141 127L169 109L188 91L195 81L235 90L263 99Q297 114 314 135T332
183L329 196Q328 202 322 206L312 212L299 214L282 212L258 206L234 200L219 198Q194 198 172 210T124 250Q103 274 89 300Q78 325 78 347Q78 358 81 365T93 379L110 387L131 390L465 391V475H0V516H590V475H518Z" />
<glyph unicode="L" glyph-name="L" horiz-adv-x="371" d="M324 260L289 301H465V260H324ZM277 475V344V331V318Q277 313 277 308Q275 301 275 298L269 276Q264 262 248 250Q237 242 215 237Q207 237 203 235L193 234L182 235Q176 235 168 239L230 145L257 110L290
72L305 55L326 34L285 0Q273 5 237 51L145 183L115 228L87 274L69 305L51 337L94 365L123 309Q131 290 146 282T182 274L204 277Q213 280 217 287L224 302L226 323L225 338V349V475H-10V516H385V475H277Z" />
<glyph unicode="M" glyph-name="M" horiz-adv-x="527" d="M451 475V344H238L232 336L231 329L232 318Q234 310 237 306L245 290L260 269L275 251L290 239L305 230L320 228H326L330 229L379 243L399 249L424 255L441 257Q453 257 462 251T481 230L489 205L492 177Q492
156 490 142T481 109Q471 81 450 60T399 27Q369 17 338 17Q301 17 265 31T192 75Q168 94 137 123Q112 150 86 183L55 225L45 245L84 283Q85 279 85 277T93 261T104 244T121 221Q135 200 144 189T168 161L217 114Q250 87 280 73T338 58Q363 58 380 66T412 89T434
128T441 175Q441 192 435 200T415 208Q407 208 392 203Q381 201 376 200T353 190L332 183L318 181Q294 181 270 196T222 242Q197 273 186 298T174 343L177 362Q180 371 188 375L205 382L227 384L400 385V475H0V516H535V475H451Z" />
<glyph unicode="N" glyph-name="N" horiz-adv-x="588" d="M463 475V389L483 378L504 369Q522 355 532 333T543 284Q543 255 538 232T520 183Q498 139 450 100Q410 67 360 49T258 30Q222 30 196 39T147 69T115 116T105 173Q105 207 117 233T158 284L143 290L131
296L120 301L112 307Q91 323 77 344Q66 364 66 388Q66 406 68 415L77 440L90 459Q96 468 105 474L0 475V516H590V475H463ZM491 307Q489 318 484 326T467 342T439 349Q425 349 416 345T398 328L388 306L385 280Q385 266 386 258T392 232T413 191L424 175L441 157L447
162L459 177Q466 187 472 200T486 234T494 284L491 307ZM412 475H170Q164 475 154 465T133 436L121 412L117 392Q117 372 125 360T150 333Q158 328 164 325T178 319T192 315T211 313H222L235 314H241L248 315H254Q259 316 260 317L279 279L276 278L272 279H266H261Q239
279 221 272T187 250T163 217T154 177Q154 154 162 136T186 99Q203 84 222 75Q243 67 264 67Q289 67 313 74T363 97L382 110L406 128L381 158L359 198L343 242Q338 265 338 284Q338 309 347 330T374 366L392 376L412 386V475Z" />
<glyph unicode="O" glyph-name="O" horiz-adv-x="229" d="M0 475V516H232V475H0ZM299 139L277 124L246 113L215 110Q184 110 159 119T111 149T75 195Q64 220 64 249Q64 279 73 303T103 349T147 383T199 394L217 393L237 390L254 386Q263 386 268 384L279 332L268
338L259 342L232 350L205 353Q183 353 168 346Q154 341 144 328T125 294Q120 277 120 258Q120 238 126 219T144 184T173 160Q194 153 213 153Q218 153 224 153Q237 156 243 157Q261 162 273 171Q291 181 303 191T322 214V156L299 139Z" />
<glyph unicode="P" glyph-name="P" horiz-adv-x="324" d="M0 475V516H330V475H0ZM404 180L369 151Q341 131 309 117Q297 112 283 109T254 106Q229 106 209 112T171 135Q156 147 145 169Q137 191 137 216Q137 236 142 251Q144 258 148 267T159 285Q173 305 186
318T213 339L49 340V381H354V340H287L258 320L238 304Q214 283 202 261T189 218Q189 199 193 186T206 165T228 151L256 147Q286 147 315 164T373 217L408 263Q420 281 420 290V201Q417 193 404 180Z" />
<glyph unicode="Q" glyph-name="Q" horiz-adv-x="625" d="M352 475V326L362 335L383 350Q399 360 414 366T443 372Q470 372 493 363T536 337T566 296T576 247Q576 215 564 184T527 118L509 98L475 63L432 98L458 117L477 135Q499 160 511 189T523 251Q523 269
519 281T505 305T480 324T445 331Q428 331 412 320T378 286Q372 280 366 267L352 241V0H299V199Q290 188 277 181L254 170L229 163L204 161Q185 161 177 162T152 170T114 195T82 239Q78 249 75 263T72 292V475H0V516H631V475H352ZM299 475H123V285Q123 260 127
249T135 231T146 217T167 204L199 200Q219 200 237 206T270 228Q281 239 288 251T299 278V475Z" />
<glyph unicode="R" glyph-name="R" horiz-adv-x="275" d="M0 475V516H277V475H0ZM168 322Q150 322 139 317Q127 314 121 308T111 291T107 267Q107 230 124 191T176 108L223 55Q240 40 248 38L213 6L167 47L135 82Q117 104 102 127T76 173Q57 219 57 259Q57 282
63 299T79 331T105 352T141 360L367 361V322H168Z" />
<glyph unicode="S" glyph-name="S" horiz-adv-x="6" d="M-95 516L-267 742L-220 768L-60 516H-95ZM-181 516L-378 648L-341 689L-156 516H-181Z" />
<glyph unicode="T" glyph-name="T" horiz-adv-x="408" d="M0 475V516H408V475H0ZM355 318L368 302L386 269L396 241L400 220Q400 193 394 173T373 135T335 106T283 95Q250 95 218 111T158 161Q138 184 118 216Q113 224 102 246T83 285L63 334Q61 339 61 344T59
353L102 387Q96 381 108 348L148 260Q179 199 214 165Q250 134 287 134Q300 134 310 139T330 157T344 182T350 216Q350 235 341 257T312 308Q307 315 302 322Q293 334 286 341Q277 353 271 356L498 357V318H355Z" />
<glyph unicode="U" glyph-name="U" horiz-adv-x="264" d="M0 475V516H268V475H0ZM184 301V221V217V213L183 208V203Q183 197 177 194L162 192Q157 192 140 204L103 241Q87 259 84 263Q76 273 70 282Q61 297 59 308Q59 319 62 325T75 337L84 340L96 341L357 342V301H184Z" />
<glyph unicode="V" glyph-name="V" horiz-adv-x="492" d="M395 475V320H217Q204 320 198 319T180 312T155 294T133 263Q127 248 127 229Q127 199 139 169Q151 143 175 118T229 80T291 67Q314 67 333 72T367 86T399 111L426 145L469 121Q453 95 434 79Q425 70 418
65T393 49T350 32T299 26Q257 26 217 41T143 88T91 156T74 233Q74 260 84 283Q93 308 112 325T155 353T205 364L344 365V475H6V516H498V475H395Z" />
<glyph unicode="W" glyph-name="W" horiz-adv-x="12" d="M-32 661Q-44 637 -64 618T-112 587Q-144 577 -177 577Q-210 577 -237 586T-285 614T-318 658T-337 718L-285 719Q-285 694 -277 676T-252 642Q-239 631 -217 622Q-208 619 -198 617T-176 615Q-156 615
-137 621T-103 639T-77 673Q-69 694 -69 718L-18 719Q-18 689 -32 661Z" />
<glyph unicode="X" glyph-name="X" horiz-adv-x="287" d="M213 475V230V217V209Q211 199 207 195T191 188Q178 188 160 199L120 233Q97 257 88 273T76 306Q77 313 78 315L85 321L89 322Q94 323 95 324H99L104 325L162 326V475H0V516H287V475H213Z" />
<glyph unicode="Y" glyph-name="Y" horiz-adv-x="385" d="M0 475V516H387V475H0ZM460 299L449 296L418 281Q408 274 405 272T391 259L374 239L359 215L344 186L336 163L293 188L295 200L303 215L320 244L326 259Q324 265 312 275T282 294L248 308Q238 311 217
313Q203 313 198 312T179 305T150 284Q143 275 138 265T130 249T125 234T123 214Q123 181 144 146Q165 115 209 84L244 62L295 38L270 -4Q247 -4 213 16T135 83Q105 114 90 147T74 218Q74 247 83 271T114 316T163 346T221 356Q248 356 271 348Q295 342 317 326L344
305Q353 298 354 292L363 299L371 305L390 318L404 327L427 337L452 345L462 347L475 349V303L460 299Z" />
<glyph unicode="Z" glyph-name="Z" horiz-adv-x="5" d="M-30 711L-37 714L-56 718L-77 720Q-92 720 -103 715T-123 702T-136 680T-142 649Q-142 634 -141 627T-134 602T-110 557L-96 538L-77 515L-115 516Q-118 518 -120 520T-129 530L-152 566Q-156 573 -165
592T-178 621Q-187 648 -187 671Q-187 693 -180 708T-155 736T-120 755T-78 761L-49 758L-22 749L-23 709L-30 711Z" />
<glyph unicode="[" glyph-name="bracketleft" horiz-adv-x="469" d="M541 210L528 202L490 186Q476 183 472 182T455 181Q431 181 411 188T375 210T348 245Q340 266 340 290Q340 312 349 332T375 368T415 393Q426 397 436 399T459 401L481 398L504 390L516 354L493
360L468 363Q451 363 438 358Q425 355 415 347T396 324Q391 311 391 292Q391 276 395 264T409 243T431 229L457 225Q473 225 486 229Q502 232 515 240T539 258T557 282V223L541 210ZM512 76L459 53L403 37Q377 33 367 33T350 32Q320 32 309 33T278 40Q246 49 217
67Q184 88 152 126Q123 164 94 220L77 260L58 314L54 325L49 341L94 365L111 309L117 303L123 299L139 292L158 290L178 293Q187 296 193 302T202 316L205 335V475H0V516H477V475H256V332Q256 308 246 293T215 266L179 256L133 253L157 200L181 163Q214 120 259
95Q280 85 304 79T354 73Q378 73 405 79T458 96T492 111T517 126Q541 141 557 157V105L512 76Z" />
<glyph unicode="\" glyph-name="backslash" horiz-adv-x="408" d="M361 452Q348 423 319 394Q284 359 252 340T193 321V176H141V344Q152 344 176 353Q198 363 234 386Q278 414 301 446T324 513Q324 537 315 558T288 597T249 624T205 634Q179 634 157 627T106 602Q86
591 74 580Q66 574 63 567L25 611L54 629L78 643Q109 659 140 668T201 677Q234 677 265 666T323 632T362 580T375 519Q375 483 361 452ZM139 0V55H197V0H139Z" />
<glyph unicode="]" glyph-name="bracketright" horiz-adv-x="180" d="M80 -84H37L78 57H139L80 -84Z" />
<glyph unicode="^" glyph-name="asciicircum" horiz-adv-x="191" d="M129 461H68L127 604H170L129 461Z" />
<glyph unicode="_" glyph-name="underscore" horiz-adv-x="816" d="M430 475V266L551 322L545 332L544 346Q544 359 548 368Q551 379 559 388T576 402T600 409Q626 409 639 393T652 347Q652 338 647 330T630 312L620 306L607 298L684 201L652 192Q644 190 640
189T631 184Q605 172 592 154T578 116Q578 98 584 83Q590 72 602 61L625 50L654 46Q669 46 675 47T693 54Q713 62 732 78L745 91L762 110L799 68L777 49L759 37L733 24L709 15L683 9L658 7Q627 7 603 14T560 37T533 72T523 118Q523 138 529 156T551 189T584 211T623
220L568 287L430 221V0H377V199L162 39L129 84L354 230L324 262L302 286Q274 315 257 328T227 343Q215 343 192 335T132 309L103 294L64 274L33 314L56 326L118 354L190 382Q203 386 213 388T232 392Q245 392 266 377T320 329L363 281Q375 266 377 259V475H0V516H826V475H430Z"
/>
<glyph unicode="`" glyph-name="grave" horiz-adv-x="5" d="M-24 -209L-39 -216Q-60 -224 -81 -228T-122 -233Q-130 -233 -140 -233T-169 -225Q-191 -219 -213 -204T-246 -167T-257 -119Q-257 -94 -249 -75Q-243 -56 -229 -42T-194 -17Q-185 -14 -175 -12T-153
-10H-70V-51H-141Q-153 -51 -164 -55T-184 -69T-197 -88T-204 -115Q-204 -132 -198 -146T-177 -170Q-165 -180 -149 -186T-114 -192Q-98 -192 -89 -190T-68 -183L-45 -171L-34 -160L-8 -199L-24 -209Z" />
<glyph unicode="a" glyph-name="a" horiz-adv-x="2" d="M-95 628V693H-26V628H-95Z" />
<glyph unicode="b" glyph-name="b" horiz-adv-x="445" d="M338 475V344H129L126 340L123 335L124 321L128 310L137 295L152 276L170 256L181 244L197 231L211 228Q224 228 237 231T259 236T286 246L310 253L330 255Q341 255 352 249T369 233T381 208L385 181Q385
146 374 118Q366 93 344 68Q334 58 321 48T296 30Q270 17 248 17L259 5L269 -2L291 -21L309 -37L349 -63L377 -80L350 -123L335 -113L324 -106Q317 -102 310 -97T294 -83L264 -57L243 -39L218 -14L199 3L191 13H172Q164 13 156 13Q146 15 137 16T123 18T108 23Q84
31 72 47Q67 54 64 64T61 87L64 104Q67 113 74 120L88 130L107 134Q123 134 141 125T180 95L193 78L211 56Q228 56 246 61Q263 64 271 69Q302 83 317 108T332 165L331 184Q331 195 329 199Q329 205 324 208L314 212L298 208L265 196L227 185L199 181Q181 181 158
197T112 244T77 300T64 341L67 356L78 370L94 380L111 384L285 385V475H0V516H451V475H338Z" />
<glyph unicode="c" glyph-name="c" horiz-adv-x="445" d="M373 475V0H320V152Q311 140 297 130L271 117Q259 111 243 108L214 106Q185 106 159 115T111 144Q87 164 75 190Q64 218 64 249Q64 278 74 302T106 348T152 379T205 390L228 388Q241 388 253 384L258 382L266
380L273 336Q268 342 254 346L228 350Q213 350 205 348L183 342Q173 339 163 332Q153 327 148 321L314 207L320 229V475H0V516H443L445 475H373ZM127 297L123 287L121 280L116 262L115 249Q115 227 121 209T144 176Q158 160 176 152Q197 145 215 145Q223 145 231
145Q239 148 242 149Q254 153 257 154T269 163L279 170L291 181L127 297Z" />
<glyph unicode="d" glyph-name="d" horiz-adv-x="637" d="M357 475V324L375 341L387 351Q404 363 423 369T457 376Q488 376 511 367T555 338Q573 322 583 298T594 247Q594 220 582 191T542 125L520 98L490 65L447 98Q450 99 453 101T463 109Q476 122 494 147Q516
175 527 202T539 251Q539 271 535 283T529 300T520 313T498 328T463 335Q441 335 423 325T387 291Q374 275 364 252Q361 243 359 234T357 214V0H305V148Q288 131 264 121T212 111Q184 111 159 120T112 150T78 194Q68 221 68 249Q68 278 77 302T108 345T154 375Q165
379 178 382T206 385L233 382Q251 378 260 374V332L250 336L245 339L230 343L215 345Q193 345 178 338T150 316T131 282T125 244Q125 223 131 207T147 177T174 156Q192 149 211 149Q229 149 242 154T270 172Q276 178 283 185T296 200Q305 214 305 226V475H0V516H645V475H357Z"
/>
<glyph unicode="e" glyph-name="e" horiz-adv-x="472" d="M413 475V0H361V252H178V182L179 171Q178 166 177 165L169 159L156 157Q146 157 131 168Q124 174 116 183T96 204Q77 225 65 243Q56 259 55 269L58 282Q62 287 69 291L74 293L84 296L127 297V475H0V516H488V475H413ZM361
475H178V297H361V475Z" />
<glyph unicode="f" glyph-name="f" horiz-adv-x="216" d="M535 516L510 538L486 562Q456 589 451 593Q434 605 427 610L367 650Q327 674 292 686T227 698Q204 698 187 690Q168 684 154 669T130 632Q127 622 125 610T123 585L124 565L129 542L135 523L139 515L226
516V475H141V0H88V475H0V516H91L87 525L81 550L75 577L74 593Q74 625 84 650T115 696T167 729T230 741Q266 741 309 727T401 683Q436 662 471 634L543 574L572 544L602 515L535 516Z" />
<glyph unicode="g" glyph-name="g" horiz-adv-x="455" d="M375 475V346H137Q128 346 124 341L120 332L124 315Q127 305 137 294L141 286L147 279L153 271L159 263L169 251L176 247L191 250L207 253L237 257L260 259Q295 259 321 253T368 234T398 202T408 157Q410
140 405 125T387 98L366 82L359 77L320 107L325 109L330 112L334 114L337 117Q345 124 349 133T355 157Q355 175 349 187T329 206T297 216L256 220Q225 220 201 214T161 193Q146 181 138 162T129 122Q129 92 156 66Q182 43 239 25L324 4Q334 3 347 3Q356 3 357
5L338 -33Q333 -37 320 -37Q310 -37 293 -34T255 -25T204 -8Q140 13 107 47T74 128Q74 141 77 152T89 177T109 202L133 226L112 248L99 265Q81 288 72 308Q70 314 68 326T64 345L67 363Q70 370 78 377L93 385L111 388L322 389V475H0V516H475V475H375Z" />
<glyph unicode="h" glyph-name="h" horiz-adv-x="215" d="M140 475V0H88V475H0V516H76Q82 522 63 552T-3 636Q-27 663 -48 677T-87 692Q-103 692 -116 686T-137 667T-148 644T-153 625T-155 606Q-155 593 -151 580Q-150 576 -147 567T-140 550L-127 525L-120 515L-178
516L-190 532L-200 552L-207 574L-209 597Q-209 622 -200 646Q-193 669 -176 689T-137 720T-89 731Q-53 731 -15 704T64 623L93 578L129 515L224 516V475H140Z" />
<glyph unicode="i" glyph-name="i" horiz-adv-x="445" d="M377 475V0H324V199L306 184L293 175Q275 163 256 157T217 151Q186 151 162 160T117 191Q109 200 102 211T88 236Q78 263 78 290V475H0V516H459V475H377ZM324 475H129V283Q129 260 136 242T159 212Q170
203 185 195Q194 192 215 190Q237 190 252 197T276 209T295 224L308 238L324 259V475Z" />
<glyph unicode="j" glyph-name="j" horiz-adv-x="372" d="M309 475V344Q309 320 302 304T276 272Q263 261 241 252Q220 245 201 245L182 246Q170 248 164 251L236 148L264 113L300 74L316 56L338 34L301 0Q285 7 245 54Q211 95 148 183L117 229L88 277L67 313L47
349L88 379L129 309Q135 297 149 291T186 284Q204 284 216 287T237 300T250 319T256 349V475H-20V516H389V475H309Z" />
<glyph unicode="k" glyph-name="k" horiz-adv-x="215" d="M141 475V0H88V475H-10V516H238V475H141Z" />
<glyph unicode="l" glyph-name="l" horiz-adv-x="588" d="M518 475V0H465V260H324L289 301H465V475H277V344V331V318Q277 313 277 308Q275 301 275 298L269 276Q264 262 248 250Q237 242 215 237Q207 237 203 235L193 234L182 235Q176 235 168 239L230 145L257
110L290 72L305 55L326 34L285 0Q273 5 237 51L145 183L115 228L87 274L69 305L51 337L94 365L123 309Q131 290 146 282T182 274L204 277Q213 280 217 287L224 302L226 323L225 338V349V475H-10V516H600V475H518Z" />
<glyph unicode="m" glyph-name="m" horiz-adv-x="541" d="M410 475L422 458L430 446Q440 429 446 411Q447 406 448 397T451 378Q451 348 437 326Q425 304 398 286Q415 278 418 277T434 264T459 235T476 196T482 151Q482 121 471 98Q462 75 441 55Q421 38 394 26Q368
17 336 17Q296 17 260 37T186 100Q161 128 134 169Q110 208 88 255L61 315Q54 336 55 341L100 369L115 328L131 288Q147 250 155 234Q156 232 171 204Q191 170 214 139Q244 100 275 78Q290 68 304 63T336 58Q353 58 360 59T380 66Q398 75 411 91Q419 103 423 119T427
143T428 157Q428 181 423 196T414 218T400 238T371 261T332 270L240 271L221 314H330L359 317Q372 320 378 325Q391 334 396 348T402 382Q402 396 396 411T376 445L365 457L350 474L-10 475V516H551V475H410Z" />
<glyph unicode="n" glyph-name="n" horiz-adv-x="492" d="M393 475V340H209Q193 340 182 334T159 316L143 291Q140 283 138 264Q138 218 159 187T225 140L261 132L313 128Q312 133 311 134V139Q311 149 309 154L308 165Q308 180 310 187L319 207Q324 215 335 220T361
226Q371 226 379 221Q387 218 394 211T406 191L410 171Q410 154 405 142T391 121L383 114L371 106L396 51L413 22L430 -1L437 -9L445 -20H379L352 33L324 92L316 90H309Q270 90 238 96T179 115Q134 136 110 173Q88 212 88 263Q88 286 94 306T117 345Q131 364 150
373T188 382L336 383V475H0V516H502V475H393Z" />
<glyph unicode="o" glyph-name="o" horiz-adv-x="445" d="M375 475V0H322V156L299 139L277 124L246 113L215 110Q184 110 159 119T111 149T75 195Q64 220 64 249Q64 279 73 303T103 349T147 383T199 394L217 393L237 390L254 386Q263 386 268 384L279 332L268
338L259 342L232 350L205 353Q183 353 168 346Q154 341 144 328T125 294Q120 277 120 258Q120 238 126 219T144 184T173 160Q194 153 213 153Q218 153 224 153Q237 156 243 157Q261 162 273 171Q291 181 303 191T322 214V475H-10V516H467V475H375Z" />
<glyph unicode="p" glyph-name="p" horiz-adv-x="541" d="M475 475V0H422V199Q419 192 406 179L370 150Q340 129 310 118T254 106Q229 106 209 112T171 135Q156 147 145 169Q137 191 137 216Q137 236 142 251Q144 258 148 267T159 285Q173 305 186 318T213 339L49
340V381H354V340H287L258 320L238 304Q214 283 202 261T189 218Q189 199 193 186T206 165T228 151L256 147Q287 147 315 160T374 203Q392 220 395 223Q403 232 410 241Q422 256 422 265V475H0V516H545V475H475Z" />
<glyph unicode="q" glyph-name="q" horiz-adv-x="5" d="M-3 -162Q-15 -185 -44 -203Q-67 -217 -95 -224T-153 -232Q-178 -232 -205 -226T-266 -205T-306 -187Q-321 -180 -338 -169Q-367 -154 -380 -139L-346 -96L-309 -123L-281 -142Q-246 -164 -212 -176T-151
-188Q-131 -188 -112 -183T-75 -166T-47 -138Q-40 -126 -40 -105Q-42 -92 -47 -80L-62 -60Q-70 -51 -80 -45L-103 -41Q-117 -41 -128 -45T-155 -60L-171 -76L-177 -82L-217 -47L-205 -36L-179 -21Q-170 -16 -160 -12T-137 -5T-117 0T-97 1Q-74 1 -55 -5T-21 -27T3
-62Q10 -85 10 -107Q10 -137 -3 -162Z" />
<glyph unicode="r" glyph-name="r" horiz-adv-x="492" d="M418 475V0H365V332H178Q161 332 147 326Q134 323 126 314T113 292L109 267Q109 230 119 197Q124 181 132 165T151 131Q181 83 205 59Q217 48 227 42T246 36L211 0Q210 0 208 1T198 8L170 35L129 81Q120
93 112 105Q110 109 97 130Q78 165 67 199Q57 237 57 267Q57 291 62 307T80 342Q92 357 108 366Q120 371 127 372T146 374L365 375V475H-10V516H510V475H418Z" />
<glyph unicode="s" glyph-name="s" horiz-adv-x="3" d="M-119 516L-326 730L-291 768L-86 516H-119Z" />
<glyph unicode="t" glyph-name="t" horiz-adv-x="637" d="M563 475V0H510V309H355Q360 306 368 289L386 245L396 210L400 183Q400 174 400 164T392 136Q386 116 371 100T333 73Q311 65 283 65Q247 65 216 82T155 136Q133 161 117 192T82 269L63 321L59 343L102
375Q102 372 102 367T104 354L122 298Q134 262 149 232T184 174Q208 140 234 121Q260 104 287 104Q302 104 313 109T333 125T345 150T350 181Q350 206 341 233T312 292L286 330Q278 342 271 347L510 348V475H0V516H645V475H563Z" />
<glyph unicode="u" glyph-name="u" horiz-adv-x="492" d="M424 475V0H371V297H184V211L183 197Q182 191 181 190L173 183L162 181Q156 181 140 194L103 233Q80 261 71 277T59 304Q59 315 62 321T75 333L84 336L96 337L371 338V475H0V516H506V475H424Z" />
<glyph unicode="v" glyph-name="v" horiz-adv-x="576" d="M506 475V0H455V227L440 223L425 220L412 218H404L386 219L365 225L355 228L344 233L347 223L350 216L355 193L357 171Q357 138 347 114Q339 91 317 73Q301 59 277 51Q266 48 255 46T227 44Q206 44 188
49T148 67Q110 89 69 136Q38 173 19 201Q4 227 4 239L45 266L76 211L101 174Q134 129 167 105Q200 83 229 83Q244 83 257 89T284 111Q293 123 300 139T307 173Q307 197 299 214Q294 231 278 246Q264 257 245 265Q224 272 205 272H188Q178 272 167 268L162 266L156
265L139 303Q163 303 182 307Q203 313 222 325T252 357T264 397Q264 415 260 427Q257 441 249 450T226 467T191 474Q174 474 154 465Q143 460 135 455T114 439L98 424L78 403L39 434Q40 437 41 439T50 448L83 475Q111 495 138 505Q170 515 195 515Q221 515 241
506T280 478Q294 463 302 441T311 397Q311 381 308 368T298 343T280 321T254 302L259 301L268 299Q277 296 280 294L297 286L306 281L316 277L327 271L338 267L361 259L387 257L407 258L431 264L442 267L455 272V475H359V516H578V475H506Z" />
<glyph unicode="w" glyph-name="w" horiz-adv-x="2" d="M86 -227Q86 -215 73 -192Q69 -185 53 -161Q41 -143 35 -135Q3 -91 -32 -67Q-68 -45 -104 -45Q-121 -45 -131 -49T-150 -65T-162 -86T-168 -114Q-168 -127 -165 -138T-154 -158T-133 -173Q-125 -176 -108
-178L-92 -176L-75 -169L-68 -165L-60 -160L-33 -201L-46 -207Q-62 -213 -78 -216L-110 -219Q-135 -219 -155 -211T-191 -188T-217 -154T-226 -111Q-226 -88 -218 -70T-190 -32Q-172 -17 -151 -9T-106 0Q-73 0 -42 -12T20 -52Q41 -70 62 -94T102 -150L116 -176L131
-203L86 -227Z" />
<glyph unicode="x" glyph-name="x" horiz-adv-x="523" d="M424 475V0H371V475H213V213V200V190Q211 180 205 175L191 171Q180 171 160 183Q145 194 120 219Q98 244 87 263T76 296Q76 303 78 306L84 311L93 312L104 313L162 314V475H0V516H536V475H424Z" />
<glyph unicode="y" glyph-name="y" horiz-adv-x="602" d="M527 475V0H475V303L460 299L449 296L418 281Q408 274 405 272T391 259L374 239L359 215L344 186L336 163L293 188L295 200L303 215L320 244L326 259Q324 265 312 275T282 294L248 308Q238 311 217 313Q203
313 198 312T179 305T150 284Q143 275 138 265T130 249T125 234T123 214Q123 181 144 146Q165 115 209 84L244 62L295 38L270 -4Q247 -4 213 16T135 83Q105 114 90 147T74 218Q74 247 83 271T114 316T163 346T221 356Q248 356 271 348Q295 342 317 326L344 305Q353
298 354 292L363 299L371 305L390 318L404 327L427 335L452 342L462 343L475 345V475H0V516H610V475H527Z" />
<glyph unicode="z" glyph-name="z" horiz-adv-x="5" d="M-357 0L-391 39L-113 213V172L-357 0Z" />
<glyph unicode="{" glyph-name="braceleft" horiz-adv-x="313" d="M293 475V516H318V475H293ZM371 281L343 273L312 268L273 267L235 270L187 280L166 285L139 294Q133 294 123 287L100 269Q83 253 73 234T63 194Q63 178 64 171T72 150T97 126L124 115L159 112H167H174H179L184
114L182 118V124V129V134L185 158L194 174Q201 181 208 183L227 187Q240 187 248 183Q256 181 265 171L275 154L279 134L276 117L269 104Q266 99 257 94L240 89L251 70L266 54L280 41L301 26L258 -4L249 3L243 9L229 23L221 35L215 44L210 53L205 63L201 75L191
71L184 70L166 66L152 65Q121 65 96 74T49 101Q33 117 20 143Q10 170 10 198Q10 211 12 219T21 241Q33 262 55 284L74 299L100 317Q92 321 80 333L60 364Q52 377 47 394L43 424Q43 446 50 461T72 489T106 508T147 514Q171 514 189 507Q209 501 225 489T251 459T260
418Q260 400 251 382Q246 372 241 365T225 348L210 335L189 321L198 317L207 316L238 311L273 310L313 311Q329 311 344 316L373 326Q389 332 391 333T406 343V297L371 281ZM202 442Q199 450 190 458L171 468L150 472Q137 472 128 468L110 459Q102 453 98 443L94
422Q94 405 99 392T117 362L126 352L141 341Q153 345 160 349L174 357Q190 369 198 385T207 422Q207 433 202 442Z" />
<glyph unicode="|" glyph-name="bar" horiz-adv-x="588" d="M521 475V0H469V145Q463 131 439 115T368 77Q335 62 302 53Q287 50 272 48T242 46Q210 46 183 55T137 84Q124 97 114 117Q111 126 109 135T107 155Q107 173 111 186Q114 203 122 213L128 220L137 229Q125
229 113 238T87 260T70 287T64 306T63 323Q63 349 73 365T107 392L125 396L152 399L281 400V475H0V516H594V475H521ZM469 475H330V357H168Q152 357 145 355Q135 355 129 353T117 341L113 319Q113 307 116 299T129 279L150 259Q159 253 168 253L175 255L180 257L207
266L225 269H246H262L276 268L291 267L309 227L303 226H298H292H286H280H275H269L263 227Q230 227 211 222Q190 218 180 208T164 186T158 157Q158 142 164 129T185 106Q193 101 199 98T214 91L248 87Q281 87 317 99T396 140Q431 161 448 175T469 196V475Z" />
<glyph unicode="}" glyph-name="braceright" horiz-adv-x="492" d="M383 475V338H188Q172 338 159 333Q147 330 138 321Q129 314 125 299L121 267Q121 239 131 218T162 180T209 153Q222 149 234 147T264 145L274 146L289 148L301 150L307 151L306 160Q306 168
311 178Q318 204 332 218T365 233Q376 233 383 230T397 220T407 204L410 186Q410 173 407 162T396 140T377 121Q370 118 355 116L359 98L362 86L369 57L377 32L380 23L384 13L387 3L390 -6L395 -27L397 -44Q397 -53 395 -58L390 -69L381 -77L367 -82L338 4L323
-9Q322 -10 310 -18T291 -30Q267 -43 235 -53Q220 -57 209 -59T182 -61Q159 -61 137 -53T94 -28T61 10Q51 32 51 54Q51 69 57 85T75 113Q91 129 105 136T135 145L115 162L102 178Q87 197 76 221Q72 233 70 243T68 267Q68 294 75 314Q81 336 95 348Q109 362 127
369Q136 372 146 374T168 376L330 377V475H0V516H490V475H383ZM314 111L302 108L290 107L277 106H266L249 107L222 110L194 113L174 115L145 112Q135 109 126 103T109 81Q106 73 105 68T104 50Q104 33 109 23T127 1Q136 -7 152 -13Q161 -16 182 -18Q198 -18 206
-17T230 -10Q255 -3 283 12L315 32Q328 42 330 46L314 111Z" />
<glyph unicode="~" glyph-name="asciitilde" horiz-adv-x="5" d="M-21 -205L-154 -59L-109 -37L0 -182L-21 -205Z" />
<glyph unicode="&#x80;" glyph-name="c128" horiz-adv-x="1000" />
</font>
</defs>
</svg>
